<?xml version="1.0" standalone="no"?>
<!DOCTYPE svg PUBLIC "-//W3C//DTD SVG 1.1//EN" "http://www.w3.org/Graphics/SVG/1.1/DTD/svg11.dtd" >
<svg xmlns="http://www.w3.org/2000/svg">
<metadata>
This is a custom SVG font generated by IcoMoon.
<iconset id="Flat UI Icons 16" name="flat-ui" href="http://designmodo.com/flat-ui" grid="16"></iconset><author name="Sergey Shmidt" href="http://designmodo.com"></author><license name="Attribution-NonCommercial-NoDerivs 3.0 Unported" href="http://creativecommons.org/licenses/by-nc-nd/3.0/"></license>
</metadata>
<defs>
<font id="Flat-UI-Icons-16" horiz-adv-x="512" >
<font-face units-per-em="512" ascent="480" descent="-32" />
<missing-glyph horiz-adv-x="512" />
<glyph unicode="&#xe000;" d="M 246.592,447.68c-24.192,0.00-31.52-13.92-31.52-13.92S 123.52,325.696, 81.792,325.696
			c-41.088,0.00-40.672,0.00-40.672,0.00C 18.368,325.696,0.00,307.424,0.00,284.992l0.00-122.016 c0.00-22.432, 18.368-40.672, 41.088-40.672c0.00,0.00, 0.64,0.00, 41.088,0.00
			c 40.512,0.00, 134.784-109.44, 134.784-109.44c 7.456-7.712, 17.952-12.576, 29.632-12.576c 22.688,0.00, 41.088,18.176, 41.088,40.672L 287.68,407.008 
			C 287.68,429.472, 269.28,447.68, 246.592,447.68z M 421.984,408.576l-23.712-35.488C 441.60,337.888, 469.344,284.192, 469.344,224.00
			c0.00-60.224-27.744-113.888-71.104-149.088l 23.712-35.456C 476.704,82.368, 512.00,148.992, 512.00,224.00S 476.704,365.60, 421.984,408.576z M 374.40,337.344l-23.936-35.84
			C 371.136,282.048, 384.16,254.624, 384.16,224.00c0.00-30.656-13.024-58.048-33.696-77.568l 23.936-35.808c 31.936,27.392, 52.288,67.968, 52.288,113.376
			C 426.688,269.376, 406.336,309.984, 374.40,337.344z" data-tags="volume-16" />
<glyph unicode="&#xe001;" d="M 480.128,64.00l0.00-0.352 L 352.00,191.744L 352.00,128.00 c0.00-35.36-28.672-64.00-64.00-64.00L 64.00,64.00 c-35.328,0.00-64.00,28.64-64.00,64.00L0.00,352.00 
	c0.00,35.328, 28.672,64.00, 64.00,64.00l 224.00,0.00 c 35.328,0.00, 64.00-28.672, 64.00-64.00l0.00-64.352 l 128.00,128.032L 480.00,416.00 c 17.696,0.00, 32.00-14.304, 32.00-32.00l0.00-288.032 C 512.00,78.368, 497.76,64.064, 480.128,64.00z" data-tags="video-16" />
<glyph unicode="&#xe002;" d="M 256.032,480.00C 114.688,480.00, 0.096,365.408, 0.096,224.00c0.00-141.376, 114.592-256.00, 255.936-256.00
			C 397.408-32.00, 512.00,82.624, 512.00,224.00C 512.00,365.408, 397.408,480.00, 256.032,480.00z M 339.488,134.176l-7.424-7.424c-6.208-6.208-16.672-6.496-23.232-0.64
			L 223.072,199.84C 216.512,205.728, 211.52,217.728, 211.968,226.496l 8.928,141.536C 221.344,376.80, 228.896,384.00, 237.728,384.00l 10.528,0.00 c 8.80,0.00, 16.352-7.20, 16.768-15.968
			l 7.328-115.904c 0.448-8.80, 5.60-21.344, 11.424-27.936l 56.384-66.752C 345.984,150.88, 345.728,140.416, 339.488,134.176z" data-tags="time-16" />
<glyph unicode="&#xe003;" d="M 459.168,263.488c-8.704,1.248-18.016,9.152-20.704,17.504l-13.024,31.584
	c-4.096,7.808-3.136,19.936, 2.144,26.976l 21.088,28.16c 5.28,7.04, 4.832,18.144-0.992,24.768L 424.544,415.68
	c-6.592,5.792-17.76,6.24-24.80,0.928L 371.648,395.52c-7.072-5.248-19.20-6.24-26.976-2.144L 313.088,406.368
	C 304.672,409.056, 296.80,418.368, 295.584,427.136L 290.592,461.888C 289.376,470.56, 281.184,478.464, 272.448,479.392c0.00,0.00-5.44,0.608-16.416,0.608
	S 239.616,479.392, 239.616,479.392C 230.88,478.464, 222.688,470.56, 221.472,461.888L 216.48,427.136C 215.264,418.368, 207.36,409.056, 198.976,406.368L 167.392,393.376
	C 159.616,389.28, 147.456,390.272, 140.448,395.52L 112.32,416.64C 105.28,421.952, 94.112,421.472, 87.52,415.68L 64.416,392.512C 58.592,385.888, 58.112,374.752, 63.392,367.712
	l 21.088-28.16c 5.28-7.04, 6.24-19.168, 2.144-26.976L 73.632,280.992C 70.976,272.672, 61.632,264.736, 52.896,263.488L 18.144,258.56
	C 9.44,257.312, 1.60,249.12, 0.672,240.384c0.00,0.00-0.608-5.44-0.608-16.416s 0.608-16.416, 0.608-16.416C 1.60,198.784, 9.44,190.624, 18.144,189.376
	l 34.752-4.96c 8.704-1.248, 18.048-9.12, 20.704-17.504l 13.024-31.584c 4.096-7.808, 3.136-19.936-2.144-26.976l-21.088-28.128
	c-5.28-7.04-6.528-16.608-2.816-21.216c 3.744-4.608, 14.432-16.064, 14.464-16.064c 0.032-0.032, 3.648-3.328, 8.00-7.36
	c 4.384-3.968, 22.208-9.536, 29.248-4.256l 28.128,21.088c 7.04,5.28, 19.20,6.208, 26.976,2.144l 31.552-12.992
	c 8.416-2.72, 16.288-12.032, 17.504-20.736l 4.992-34.752c 1.216-8.736, 9.408-16.64, 18.144-17.536c0.00,0.00, 5.44-0.608, 16.416-0.608
	s 16.416,0.608, 16.416,0.608c 8.736,0.896, 16.928,8.768, 18.144,17.536l 4.992,34.752c 1.216,8.704, 9.088,18.016, 17.504,20.736l 31.584,12.992
	c 7.776,4.096, 19.904,3.136, 26.976-2.144l 28.128-21.088c 7.04-5.28, 18.176-4.832, 24.768,0.928l 23.136,23.20
	c 5.824,6.592, 6.24,17.76, 0.96,24.768l-21.088,28.128c-5.28,7.04-6.24,19.168-2.144,26.976l 13.024,31.584
	c 2.688,8.384, 12.00,16.256, 20.704,17.504l 34.752,4.96c 8.704,1.248, 16.608,9.408, 17.536,18.176c0.00,0.00, 0.576,5.44, 0.576,16.416
	s-0.576,16.416-0.576,16.416c-0.928,8.736-8.80,16.928-17.536,18.176L 459.168,263.488z M 256.032,159.936c-35.328,0.00-64.00,28.672-64.00,64.032
	c0.00,35.328, 28.672,64.00, 64.00,64.00s 64.00-28.672, 64.00-64.00C 320.032,188.608, 291.36,159.936, 256.032,159.936z" data-tags="settings-16" />
<glyph unicode="&#xe004;" d="M 480.00,159.968l-160.00,0.00 L 320.00,0.00 c0.00-17.696-14.304-32.00-32.00-32.00L 256.00-32.00 c-17.664,0.00-32.00,14.304-32.00,32.00l0.00,159.968 L 64.00,159.968 c-17.664,0.00-32.00,14.336-32.00,32.00L 32.00,224.00 c0.00,17.696, 14.336,31.968, 32.00,31.968
	l 160.00,0.00 l0.00,160.00 C 224.00,433.664, 238.336,448.00, 256.00,448.00l 32.00,0.00 c 17.696,0.00, 32.00-14.336, 32.00-32.032l0.00-160.00 l 160.00,0.00 c 17.696,0.00, 32.00-14.272, 32.00-31.968l0.00-32.032 C 512.00,174.304, 497.696,159.968, 480.00,159.968z" data-tags="plus-16" />
<glyph unicode="&#xe005;" d="M 480.256,355.136c-10.88,17.984-24.256,35.552-40.672,51.872
	c-16.576,16.48-34.496,29.984-52.80,40.80L 418.944,480.00c0.00,0.00, 46.56,0.00, 69.824-23.296S 512.00,386.88, 512.00,386.88L 480.256,355.136z M 193.632,64.352L 96.384,64.352 L 96.384,161.60 
	l 11.68,11.648c 19.776-9.28, 39.392-22.432, 57.088-40.128c 17.696-17.696, 30.848-37.344, 40.16-57.088L 193.632,64.352z M 453.376,328.224l-220.00-224.128
	C 222.016,122.88, 208.00,141.248, 190.88,158.272C 173.536,175.488, 154.848,189.60, 135.744,200.928l 224.576,220.416c 18.88-8.896, 37.696-21.504, 54.624-38.432
	S 444.448,347.20, 453.376,328.224z M 64.00,415.968L 64.00,32.00 l 384.00,0.00 L 448.00,192.00 l 64.00,63.968l0.00-241.44 C 512.00-11.20, 491.20-32.00, 465.504-32.00L 46.56-32.00 C 20.832-32.00,0.00-11.20,0.00,14.528L0.00,433.44 
	C0.00,459.20, 20.832,480.00, 46.56,480.00L 288.00,480.00 L 224.00,415.968L 64.00,415.968 z" data-tags="new-16" />
<glyph unicode="&#xe006;" d="M 496.00,448.00L 16.064,448.00 c-8.80,0.00-16.00-7.68-16.00-17.088l0.00-62.336 c0.00-9.024, 7.20-16.416, 16.00-16.416
			L 496.00,352.16 c 8.80,0.00, 16.00,7.36, 16.00,16.416L 512.00,430.912 C 512.00,440.32, 504.80,448.00, 496.00,448.00z M 496.00,288.00L 16.064,288.00 c-8.80,0.00-16.00-7.68-16.00-17.088l0.00-62.304 
			c0.00-9.056, 7.20-16.448, 16.00-16.448L 496.00,192.16 c 8.80,0.00, 16.00,7.36, 16.00,16.448L 512.00,270.912 C 512.00,280.32, 504.80,288.00, 496.00,288.00z M 496.00,128.00L 16.064,128.00 
			c-8.80,0.00-16.00-7.68-16.00-17.088l0.00-62.304 c0.00-9.056, 7.20-16.448, 16.00-16.448L 496.00,32.16 c 8.80,0.00, 16.00,7.36, 16.00,16.448l0.00,62.304 
			C 512.00,120.32, 504.80,128.00, 496.00,128.00z" data-tags="menu-16" />
<glyph unicode="&#xe007;" d="M 458.656,32.032l-21.312,0.00 c0.00,0.00-21.344,0.00-21.344,21.344l0.00,53.312 c0.00,5.888-4.768,10.624-10.656,10.624s-10.688-4.736-10.688-10.624
	l-0.16-91.648c0.00-12.992-42.88-47.04-138.496-47.04s-138.496,34.016-138.496,47.04l-0.16,91.648c0.00,5.888-4.80,10.624-10.688,10.624
	S 96.00,112.576, 96.00,106.688l0.00-53.312 c0.00-21.344-21.344-21.344-21.344-21.344L 53.344,32.032 c0.00,0.00-21.344,0.00-21.344,21.344L 32.00,144.00 c0.00,62.336, 61.728,115.20, 147.84,135.264
	c0.00,0.00, 26.304-23.584, 76.16-23.584s 76.16,23.584, 76.16,23.584C 418.272,259.20, 480.00,206.336, 480.00,144.00l0.00-90.624 C 480.00,32.032, 458.656,32.032, 458.656,32.032z
	 M 255.488,288.00c-52.992,0.00-96.00,43.008-96.00,96.00s 42.976,96.00, 96.00,96.00s 96.00-43.008, 96.00-96.00S 308.544,288.00, 255.488,288.00z" data-tags="man-16" />
<glyph unicode="&#xe008;" d="M 256.00,213.344c-41.60,0.00-256.00,172.992-256.00,172.992L0.00,405.344 C0.00,428.896, 19.104,448.00, 42.656,448.00l 426.688,0.00 
	C 492.896,448.00, 512.00,428.896, 512.00,405.344L 511.648,384.00C 511.648,384.00, 299.584,213.344, 256.00,213.344z M 256.00,154.688C 301.60,154.688, 511.648,320.00, 511.648,320.00L 512.00,72.00
	c0.00-23.552-19.104-42.624-42.656-42.624L 42.656,29.376 C 19.104,29.376,0.00,48.448,0.00,72.00L 0.32,320.00C 0.32,320.00, 214.40,154.688, 256.00,154.688z" data-tags="mail-16" />
<glyph unicode="&#xe009;" d="M 448.00-32.032L 64.00-32.032 c-17.696,0.00-32.00,14.336-32.00,32.032L 32.00,224.00 c0.00,17.664, 14.304,31.968, 32.00,31.968l 32.00,0.00 L 96.00,320.00 
	c0.00,88.352, 71.616,160.00, 160.00,160.00s 160.00-71.648, 160.00-160.00l0.00-64.032 l 32.00,0.00 c 17.696,0.00, 32.00-14.304, 32.00-31.968l0.00-224.00 C 480.00-17.696, 465.696-32.032, 448.00-32.032z M 352.00,320.00
	c0.00,52.992-42.976,95.968-96.00,95.968S 160.00,372.992, 160.00,320.00l0.00-64.032 l 192.00,0.00 L 352.00,320.00 z" data-tags="lock-16" />
<glyph unicode="&#xe00a;" d="M 256.00,216.256c-43.936,0.00-79.552,36.864-79.552,82.40S 212.064,381.088, 256.00,381.088s 79.552-36.896, 79.552-82.432S 299.936,216.256, 256.00,216.256 M 256.00,480.384
	c-97.248,0.00-176.064-81.632-176.064-182.40c0.00-95.136, 79.744-217.856, 132.992-277.60C 232.832-1.952, 256.00-32.00, 256.00-32.00s 24.896,30.208, 46.24,53.184
	c 53.184,57.248, 129.824,172.224, 129.824,276.768C 432.064,398.752, 353.248,480.384, 256.00,480.384" data-tags="location-16" />
<glyph unicode="&#xe00b;" d="M 474.336,223.264c 50.24,51.392, 50.176,134.656,0.00,186.016c-25.696,26.24-59.488,39.104-93.12,38.496
	c-47.072-0.768-124.672-64.48-124.672-64.48s-79.776,64.576-128.00,64.512C 95.68,447.744, 62.848,434.912, 37.792,409.28c-50.208-51.36-50.24-134.624,0.00-186.016
	l 218.272-223.136L 474.336,223.264z" data-tags="heart-16" />
<glyph unicode="&#xe00c;" d="M 255.552,400.448C 86.112,400.448-0.864,224.00-0.864,224.00s 65.664-176.512, 256.448-176.512
			c 172.768,0.00, 256.448,175.808, 256.448,175.808S 427.68,400.448, 255.552,400.448z M 255.968,113.696c-61.984,0.00-106.752,48.256-106.752,110.304
			c0.00,62.016, 44.768,110.24, 106.752,110.24c 61.952,0.00, 106.72-48.224, 106.72-110.24C 362.688,161.952, 317.92,113.696, 255.968,113.696z M 255.968,290.144
			C 220.576,290.08, 191.904,259.392, 191.904,224.00c0.00-35.424, 28.672-66.208, 64.064-66.208S 320.00,188.576, 320.00,224.00S 291.36,290.24, 255.968,290.144z" data-tags="eye-16" />
<glyph unicode="&#xe00d;" d="M 443.904,398.08c 6.24-6.208, 6.24-16.384,0.00-22.592L 319.648,251.232c-6.176-6.176-6.176-16.352,0.00-22.56l 124.192-124.32
	c 6.24-6.176, 6.24-16.352,0.00-22.592l-45.248-45.088c-6.176-6.176-16.352-6.176-22.592,0.00L 251.872,160.928c-6.208,6.176-16.384,6.176-22.592,0.00
	l-124.256-124.224c-6.208-6.144-16.384-6.144-22.592,0.00l-45.184,45.216c-6.208,6.176-6.208,16.384,0.00,22.56l 124.288,124.224
	c 6.208,6.24, 6.208,16.352,0.00,22.592L 37.344,375.616c-6.208,6.24-6.208,16.416,0.00,22.592l 45.248,45.152c 6.208,6.208, 16.384,6.208, 22.592-0.032
	l 124.16-124.256C 235.52,312.864, 245.696,312.864, 251.904,319.04l 124.224,124.224c 6.24,6.208, 16.416,6.208, 22.592,0.00L 443.904,398.08z" data-tags="cross-16" />
<glyph unicode="&#xe00e;" d="M 400.00,256.00c-11.488,0.00-29.664,0.00-48.00,0.00l0.00-64.00 c 11.328,0.00, 43.648,0.00, 48.00,0.00
	c 61.856,0.00, 112.00-50.112, 112.00-112.00S 461.856-32.00, 400.00-32.00S 288.00,18.112, 288.00,80.00c0.00,11.488,0.00,29.664,0.00,48.00L 224.00,128.00 c0.00-11.296,0.00-43.648,0.00-48.00
	C 224.00,18.112, 173.856-32.00, 112.00-32.00S0.00,18.112,0.00,80.00S 50.144,192.00, 112.00,192.00C 123.488,192.00, 141.664,192.00, 160.00,192.00L 160.00,256.00 C 148.704,256.00, 137.568,256.00, 128.00,256.00C 121.952,256.00, 116.384,256.00, 112.00,256.00
	C 50.144,256.00,0.00,306.112,0.00,368.00C0.00,429.856, 50.144,480.00, 112.00,480.00S 224.00,429.856, 224.00,368.00C 224.00,356.512, 224.00,338.336, 224.00,320.00l 64.00,0.00 c0.00,11.296,0.00,43.616,0.00,48.00C 288.00,429.856, 338.144,480.00, 400.00,480.00
	S 512.00,429.856, 512.00,368.00C 512.00,306.112, 461.856,256.00, 400.00,256.00z M 160.00,368.00C 160.00,394.496, 138.496,416.00, 112.00,416.00S 64.00,394.496, 64.00,368.00S 85.504,320.00, 112.00,320.00C 115.872,320.00, 160.00,320.00, 160.00,320.00
	S 160.00,354.528, 160.00,368.00z M 160.00,128.00c0.00,0.00-34.528,0.00-48.00,0.00C 85.504,128.00, 64.00,106.496, 64.00,80.00S 85.504,32.00, 112.00,32.00S 160.00,53.504, 160.00,80.00C 160.00,83.872, 160.00,128.00, 160.00,128.00z M 352.00,80.00
	c0.00-26.496, 21.504-48.00, 48.00-48.00s 48.00,21.504, 48.00,48.00S 426.496,128.00, 400.00,128.00c-3.872,0.00-48.00,0.00-48.00,0.00S 352.00,93.44, 352.00,80.00z M 288.00,256.00L 224.00,256.00 l0.00-64.00 l 64.00,0.00 L 288.00,256.00 z M 400.00,416.00
	C 373.504,416.00, 352.00,394.496, 352.00,368.00C 352.00,364.128, 352.00,320.00, 352.00,320.00s 34.528,0.00, 48.00,0.00C 426.496,320.00, 448.00,341.504, 448.00,368.00S 426.496,416.00, 400.00,416.00z" data-tags="cmd-16" />
<glyph unicode="&#xe00f;" d="M 256.00,480.032C 114.624,480.032,0.00,365.408,0.00,224.00c0.00-141.376, 114.624-256.00, 256.00-256.00c 141.376,0.00, 256.00,114.624, 256.00,256.00
			C 512.00,365.408, 397.376,480.032, 256.00,480.032z M 421.44,276.032l-183.648-183.584c-3.744-3.776-9.856-3.776-13.568,0.00l-27.136,27.392
			c-3.712,3.744-9.856,9.92-13.568,13.696L 120.352,199.904C 118.496,201.792, 117.504,204.416, 117.504,206.88s 0.992,4.832, 2.848,6.72l 27.68,24.96
			c 1.888,1.92, 4.384,2.848, 6.848,2.816c 2.432-0.032, 4.864-0.96, 6.72-2.816l 62.624-63.904c 3.744-3.808, 9.824-3.808, 13.568,0.00l 142.944,142.496
			c 3.712,3.776, 9.856,3.776, 13.568,0.00l 27.168-27.392C 425.184,286.016, 425.184,279.808, 421.44,276.032z" data-tags="checkround-16" />
<glyph unicode="&#xe010;" d="M 462.112,411.328c-6.176,6.272-16.384,6.272-22.56,0.00L 201.472,174.08
	c-6.24-6.304-16.416-6.304-22.624,0.00L 74.592,280.48c-3.104,3.104-7.136,4.672-11.20,4.704C 59.264,285.216, 55.104,283.648, 51.968,280.48
	l-46.08-41.504C 2.816,235.808, 1.152,231.872, 1.152,227.744s 1.664-8.512, 4.736-11.584l 105.184-110.464c 6.208-6.304, 16.416-16.576, 22.624-22.816
	l 45.216-45.632c 6.208-6.24, 16.384-6.24, 22.624,0.00l 305.856,305.664c 6.208,6.208, 6.208,16.544,0.00,22.816L 462.112,411.328z" data-tags="checkmark-16" />
<glyph unicode="&#xe011;" d="M 448.00,384.00l-73.92,0.00 l-20.896,45.312C 348.256,439.936, 330.624,448.00, 313.472,448.00L 191.072,448.00 
			C 173.92,448.00, 156.288,439.936, 151.36,429.312L 130.432,384.00L 64.00,384.00 C 15.648,384.00,0.00,352.00,0.00,352.00l0.00-320.00 c0.00,0.00, 16.672-32.00, 64.00-32.00l 384.00,0.00 c 48.352,0.00, 64.00,32.00, 64.00,32.00L 512.00,352.00 C 512.00,352.00, 497.344,384.00, 448.00,384.00z M 256.00,64.00
			c-70.688,0.00-128.00,57.28-128.00,127.968S 185.312,320.00, 256.00,320.00s 128.00-57.344, 128.00-128.032S 326.688,64.00, 256.00,64.00z M 256.00,272.00C 211.808,272.00, 176.00,236.192, 176.00,192.00s 35.808-80.00, 80.00-80.00
			s 80.00,35.808, 80.00,80.00S 300.192,272.00, 256.00,272.00z" data-tags="camera-16" />
<glyph unicode="&#xe012;" d="M0.00,288.256L0.00,342.08 c0.00,22.976, 19.104,41.60, 42.656,41.60l 53.696,0.00 L 96.352,428.864 
	C 96.352,439.424, 107.136,480.00, 120.448,480.00L 168.64,480.00 c 13.312,0.00, 24.096-40.576, 24.096-51.136L 192.736,383.68 l 159.616,0.00 L 352.352,428.864 c0.00,10.56, 10.816,51.136, 24.096,51.136l 48.192,0.00 
	c 13.312,0.00, 24.096-40.576, 24.096-51.136L 448.736,383.68 l 20.64,0.00 c 23.552,0.00, 42.688-18.624, 42.688-41.60l0.00-53.856 L0.00,288.224 z M 512.032,255.712l0.00-246.144 
	c0.00-22.976-19.136-41.60-42.688-41.60L 42.656-32.032 c-23.552,0.00-42.656,18.624-42.656,41.60L0.00,255.712 L 512.032,255.712 z" data-tags="calendar-16" />
<glyph unicode="&#xe013;" d="M 228.864,84.032l 144.672-113.28c 2.368-1.856, 3.808-2.784, 5.184-2.784
	c 4.00,0.00, 5.216,2.752, 5.216,7.264l0.00,107.168 c0.00,7.552, 4.992,13.60, 11.68,13.60L 448.224,96.00c 46.656,0.00, 63.68,30.688, 63.68,30.688L 511.904,446.752 
	c0.00,0.00-18.304,33.248-63.968,33.248L 64.00,480.00 C 17.344,480.00,0.00,446.752,0.00,446.752l0.00-320.064 C0.00,126.688, 20.576,96.00, 64.224,96.00l 128.00,0.00 C 192.224,96.00, 219.008,95.232, 228.864,84.032z" data-tags="bubble-16" />
<glyph unicode="&#x20;" horiz-adv-x="256" />
<glyph class="hidden" unicode="&#xf000;" d="M0,480L 512 -32L0 -32 z" horiz-adv-x="0" />
</font>
</defs>
</svg>
