<?xml version="1.0" standalone="no"?>
<!DOCTYPE svg PUBLIC "-//W3C//DTD SVG 1.1//EN" "http://www.w3.org/Graphics/SVG/1.1/DTD/svg11.dtd" >
<svg xmlns="http://www.w3.org/2000/svg">
<metadata>
This is a custom SVG font generated by IcoMoon.
<iconset id="Flat-UI-Icons-24" name="flat-ui" href="http://designmodo.com/flat-ui" grid="16"></iconset><author name="Sergey Shmidt" href="http://designmodo.com"></author><license name="Attribution-NonCommercial-NoDerivs 3.0 Unported" href="http://creativecommons.org/licenses/by-nc-nd/3.0/"></license>
</metadata>
<defs>
<font id="Flat-UI-Icons-24" horiz-adv-x="512" >
<font-face units-per-em="512" ascent="480" descent="-32" />
<missing-glyph horiz-adv-x="512" />
<glyph unicode="&#xe000;" d="M 480.128,32.00l0.00-0.341 L 362.667,149.099L 362.667,74.667 c0.00-23.573-19.115-42.667-42.667-42.667l-32.00,0.00 L 64.00,32.00 L 42.667,32.00 c-23.552,0.00-42.667,19.093-42.667,42.667
	l0.00,21.333 l0.00,0.00L0.00,352.00 l0.00,0.00L0.00,373.333 c0.00,23.552, 19.115,42.645, 42.667,42.645l 21.333,0.00 l0.00,0.00l 224.00,0.00 l0.00,0.00L 320.00,415.979 c 23.552,0.00, 42.667-19.093, 42.667-42.645l0.00-75.008 l 117.333,117.333L 480.00,415.979 
	c 17.664,0.00, 32.00-14.315, 32.00-31.979l0.00-320.00 C 512.00,46.357, 497.728,32.085, 480.128,32.00z"  />
<glyph unicode="&#xe001;" d="M 256.00,480.00C 114.667,480.00, 0.064,365.376, 0.064,224.00c0.00-141.376, 114.603-256.00, 255.936-256.00
			c 141.355,0.00, 255.936,114.624, 255.936,256.00C 511.936,365.376, 397.355,480.00, 256.00,480.00z M 350.123,123.541l-7.467-7.467c-6.208-6.208-16.683-6.507-23.211-0.619
			l-96.427,84.373c-6.571,5.867-11.541,17.877-11.115,26.667l 8.939,152.192C 221.312,387.499, 228.885,394.667, 237.696,394.667l 10.517,0.00 
			c 8.811,0.00, 16.363-7.168, 16.789-15.957l 7.317-126.592c 0.448-8.811, 5.589-21.333, 11.413-27.925l 67.072-77.397
			C 356.629,140.203, 356.352,129.749, 350.123,123.541z"  />
<glyph unicode="&#xe002;" d="M 459.115,263.552c-8.747,1.259-18.048,9.131-20.757,17.493l-12.992,31.595
	c-4.075,7.787-3.115,19.947, 2.133,26.965l 21.12,28.117c 5.248,7.04, 4.843,18.219-1.003,24.789l-23.125,23.168
	c-6.592,5.803-17.749,6.251-24.832,0.96l-28.075-21.077c-7.04-5.291-19.157-6.251-26.965-2.155l-31.573,12.992
	c-8.427,2.688-16.299,11.989-17.493,20.715l-4.992,34.752c-1.216,8.725-9.408,16.597-18.133,17.536c0.00,0.00-5.44,0.555-16.427,0.555
	c-10.965,0.00-16.405-0.555-16.405-0.555c-8.747-0.939-16.939-8.811-18.176-17.536l-4.971-34.752c-1.237-8.725-9.109-18.027-17.493-20.715
	l-31.573-12.992C 159.573,389.333, 147.456,390.272, 140.416,395.563L 112.299,416.661c-7.04,5.291-18.219,4.864-24.811-0.96L 64.363,392.533
	C 58.56,385.941, 58.091,374.784, 63.381,367.744l 21.077-28.117C 89.771,332.587, 90.709,320.448, 86.635,312.661L 73.60,281.045
	c-2.667-8.384-11.989-16.256-20.715-17.493L 18.133,258.624c-8.704-1.259-16.576-9.429-17.493-18.197c0.00,0.00-0.576-5.44-0.576-16.427
	s 0.576-16.427, 0.576-16.427c 0.917-8.768, 8.789-16.917, 17.493-18.176l 34.752-4.949c 8.704-1.259, 18.048-9.131, 20.715-17.493l 13.035-31.573
	c 4.075-7.787, 3.115-19.968-2.176-26.965l-21.077-28.117c-5.291-7.04-6.571-16.619-2.816-21.205c 3.733-4.629, 14.443-16.043, 14.464-16.085
	s 3.648-3.328, 8.00-7.339s 22.229-9.579, 29.269-4.331l 28.096,21.12c 7.04,5.248, 19.157,6.251, 26.965,2.133l 31.573-12.992
	c 8.405-2.667, 16.277-11.989, 17.493-20.715l 4.971-34.752c 1.237-8.704, 9.408-16.619, 18.176-17.536c0.00,0.00, 5.44-0.576, 16.405-0.576
	c 10.987,0.00, 16.427,0.576, 16.427,0.576c 8.725,0.917, 16.917,8.832, 18.133,17.536l 4.992,34.752c 1.216,8.704, 9.088,18.048, 17.493,20.715l 31.573,13.035
	c 7.787,4.075, 19.925,3.115, 26.965-2.176l 28.117-21.12c 7.083-5.248, 18.219-4.843, 24.832,1.003l 23.083,23.125
	c 5.824,6.635, 6.251,17.792, 1.003,24.832l-21.12,28.117c-5.248,6.997-6.208,19.157-2.133,26.965l 12.992,31.573
	c 2.709,8.384, 11.989,16.256, 20.757,17.493l 34.709,4.949c 8.747,1.259, 16.619,9.408, 17.536,18.176c0.00,0.00, 0.576,5.44, 0.576,16.427
	s-0.576,16.427-0.576,16.427c-0.917,8.747-8.789,16.939-17.536,18.197L 459.115,263.552z M 256.00,160.00C 220.651,160.00, 192.00,188.672, 192.00,224.00
	C 192.00,259.349, 220.651,288.00, 256.00,288.00c 35.349,0.00, 64.00-28.672, 64.00-64.00C 320.00,188.672, 291.328,160.00, 256.00,160.00z"  />
<glyph unicode="&#xe003;" d="M 480.00,181.333L 298.667,181.333 l0.00-181.333 c0.00-5.888-4.779-10.667-10.667-10.667l-85.333,0.00 C 196.779-10.667, 192.00-5.888, 192.00,0.00L 192.00,181.333 L 10.667,181.333 
	C 4.779,181.333,0.00,186.112,0.00,192.00l0.00,85.333 C0.00,283.221, 4.779,288.00, 10.667,288.00L 192.00,288.00 L 192.00,469.333 C 192.00,475.221, 196.779,480.00, 202.667,480.00l 85.333,0.00 C 293.888,480.00, 298.667,475.221, 298.667,469.333L 298.667,288.00 l 181.333,0.00 
	C 485.888,288.00, 490.667,283.221, 490.667,277.333l0.00-85.333 C 490.667,186.112, 485.888,181.333, 480.00,181.333z"  />
<glyph unicode="&#xe005;" d="M 461.547,344.192c-9.963,16.469-22.251,32.597-37.291,47.552c-15.211,15.104-31.616,27.477-48.405,37.419L 405.333,458.667C 405.333,458.667, 448.00,458.667, 469.333,437.333S 490.667,373.333, 490.667,373.333
	L 461.547,344.192z M 213.333,96.00L 128.00,96.00 l0.00,85.333 l 10.24,10.24c 17.344-8.213, 34.581-19.755, 50.091-35.243c 15.531-15.552, 27.051-32.747, 35.243-50.091L 213.333,96.00z M 436.907,319.573
	l-188.715-188.693c-9.963,16.448-22.251,32.619-37.291,47.552c-15.189,15.125-31.616,27.477-48.405,37.419L 351.573,404.907
	c 17.344-8.171, 34.581-19.712, 50.091-35.221C 417.216,354.155, 428.736,336.917, 436.907,319.573z M 85.333,394.667l0.00-341.333 l 341.333,0.00 l0.00,149.333 l 64.00,64.811L 490.667,32.00 c0.00-23.573-19.115-42.667-42.667-42.667L 64.00-10.667 
	c-23.552,0.00-42.667,19.093-42.667,42.667L 21.333,416.00 c0.00,23.552, 19.115,42.667, 42.667,42.667l 234.88,0.00 l-64.021-64.00L 85.333,394.667 z"  />
<glyph unicode="&#xe006;" d="M 495.872,117.141L 16.00,117.141 c-8.811,0.00-16.00-7.68-16.00-17.088l0.00-72.981 C0.00,18.048, 7.189,10.667, 16.00,10.667l 479.872,0.00 c 8.832,0.00, 16.00,7.381, 16.00,16.427
			L 511.872,100.053 C 511.872,109.461, 504.704,117.141, 495.872,117.141z M 495.872,287.808L 16.00,287.808 C 7.189,287.808,0.00,280.128,0.00,270.72l0.00-72.981 
			c0.00-9.045, 7.189-16.405, 16.00-16.405l 479.872,0.00 c 8.832,0.00, 16.00,7.36, 16.00,16.405L 511.872,270.72 C 511.872,280.128, 504.704,287.808, 495.872,287.808z
			 M 495.872,458.475L 16.00,458.475 C 7.189,458.475,0.00,450.795,0.00,441.387L0.00,368.427 c0.00-9.024, 7.189-16.405, 16.00-16.405l 479.872,0.00 c 8.832,0.00, 16.00,7.381, 16.00,16.405L 511.872,441.387 
			C 511.872,450.795, 504.704,458.475, 495.872,458.475z"  />
<glyph unicode="&#xe007;" d="M 469.333,32.043l-21.333,0.00 c0.00,0.00-21.333,0.00-21.333,21.333L 426.667,106.667 c0.00,5.909-4.779,10.667-10.667,10.667S 405.333,112.576, 405.333,106.667
	l-0.171-91.627c0.00-12.992-42.88-47.04-138.496-47.04s-138.496,34.048-138.496,47.04L 128.00,106.667C 128.00,112.576, 123.221,117.333, 117.333,117.333S 106.667,112.576, 106.667,106.667l0.00-53.291 
	c0.00-21.333-21.333-21.333-21.333-21.333L 64.00,32.043 c0.00,0.00-21.333,0.00-21.333,21.333L 42.667,144.00 c0.00,62.336, 61.696,115.221, 147.84,135.275c0.00,0.00, 26.325-23.616, 76.16-23.616s 76.16,23.616, 76.16,23.616
	c 86.144-20.053, 147.84-72.939, 147.84-135.275l0.00-90.624 C 490.667,32.043, 469.333,32.043, 469.333,32.043z M 266.176,288.00c-53.013,0.00-96.00,42.987-96.00,96.00S 213.141,480.00, 266.176,480.00
	s 96.00-42.987, 96.00-96.00S 319.189,288.00, 266.176,288.00z"  />
<glyph unicode="&#xe008;" d="M 255.659,202.667C 213.995,202.667-0.661,375.659-0.661,375.659L-0.661,394.667 c0.00,23.552, 19.115,42.667, 42.709,42.667l 427.221,0.00 
	C 492.885,437.333, 512.00,418.219, 512.00,394.667l-0.341-21.333C 511.659,373.333, 299.328,202.667, 255.659,202.667z M 255.659,144.00c 45.675,0.00, 256.00,165.333, 256.00,165.333L 512.00,53.333
	c0.00-23.552-19.115-42.667-42.731-42.667L 42.048,10.667 c-23.573,0.00-42.709,19.115-42.709,42.667l 0.341,256.00C-0.341,309.333, 213.995,144.00, 255.659,144.00z"  />
<glyph unicode="&#xe009;" d="M 426.709-32.021L 85.632-32.021 c-23.552,0.00-42.624,19.115-42.624,42.688L 43.008,224.128 
	c0.00,23.573, 19.093,42.709, 42.624,42.709l 21.312,0.00 L 106.944,330.859 c0.00,82.517, 66.816,149.419, 149.227,149.419s 149.227-66.901, 149.227-149.419l0.00-64.021 l 21.312,0.00 
	c 23.552,0.00, 42.624-19.115, 42.624-42.709L 469.333,10.667 C 469.333-12.885, 450.24-32.021, 426.709-32.021z M 341.44,330.859c0.00,47.147-38.187,85.376-85.269,85.376
	S 170.901,378.005, 170.901,330.859l0.00-64.021 l 170.539,0.00 L 341.44,330.859 z"  />
<glyph unicode="&#xe00a;" d="M 245.611,215.893c-45.163,0.00-81.813,36.885-81.813,82.389c0.00,45.547, 36.651,82.411, 81.813,82.411s 81.813-36.885, 81.813-82.411
	C 327.424,252.80, 290.773,215.893, 245.611,215.893 M 245.611,480.00C 145.60,480.00, 64.533,398.357, 64.533,297.621c0.00-95.147, 82.005-217.877, 136.768-277.632
	c 20.459-22.293, 44.288-52.352, 44.288-52.352s 25.60,30.229, 47.552,53.184C 347.861,78.08, 426.667,193.045, 426.667,297.621C 426.667,398.357, 345.60,480.00, 245.611,480.00"  />
<glyph unicode="&#xe00b;" d="M 474.261,212.949c 50.24,51.499, 50.219,134.933,0.00,186.411c-25.664,26.304-59.499,39.168-93.12,38.613c-47.061-0.811-124.672-64.619-124.672-64.619
	s-79.787,64.704-128.00,64.64c-32.853-0.064-65.685-12.928-90.731-38.635c-50.219-51.477-50.24-134.912,0.00-186.411L 256.00-10.667L 474.261,212.949z"  />
<glyph unicode="&#xe00c;" d="M 256.00,394.667C 86.677,394.667-0.256,224.00-0.256,224.00S 65.344,53.333, 256.00,53.333
			c 172.651,0.00, 256.235,170.005, 256.235,170.005S 427.989,394.667, 256.00,394.667z M 256.384,117.333c-61.909,0.00-106.667,46.677-106.667,106.667c0.00,60.011, 44.757,106.667, 106.667,106.667c 61.909,0.00, 106.667-46.656, 106.667-106.667
			C 363.051,164.011, 318.293,117.333, 256.384,117.333z M 256.384,288.00c-35.371-0.064-64.00-29.717-64.00-64.00c0.00-34.261, 28.629-64.00, 64.00-64.00c 35.371,0.00, 64.00,29.76, 64.00,64.00
			C 320.384,258.304, 291.755,288.064, 256.384,288.00z"  />
<glyph unicode="&#xe00d;" d="M 474.56,394.347c 6.677-6.677, 6.677-17.621,0.00-24.299l-133.888-133.76c-6.677-6.656-6.677-17.621,0.00-24.32l 133.824-133.803
	c 6.677-6.677, 6.677-17.621,0.00-24.32l-48.747-48.576c-6.699-6.656-17.664-6.656-24.363,0.00l-133.781,133.781c-6.677,6.677-17.664,6.677-24.341,0.00
	l-133.888-133.696c-6.677-6.677-17.664-6.677-24.341,0.00l-48.683,48.64c-6.677,6.677-6.677,17.621,0.00,24.32l 133.931,133.739
	c 6.677,6.656, 6.677,17.621,0.00,24.32L 36.459,370.197c-6.699,6.677-6.699,17.643,0.00,24.32l 48.725,48.597C 91.904,449.771, 102.848,449.771, 109.547,443.093
	L 243.307,309.333c 6.699-6.699, 17.664-6.699, 24.341-0.021l 133.888,133.696c 6.656,6.656, 17.621,6.656, 24.341,0.00L 474.56,394.347z"  />
<glyph unicode="&#xe00e;" d="M 405.333,181.333l-40.725,0.00 c 0.235,0.00-0.192,0.00-1.941,0.00l0.00,85.333 l 42.667,0.00 c 58.923,0.00, 106.667,47.744, 106.667,106.667s-47.744,106.667-106.667,106.667
			s-106.667-47.744-106.667-106.667l0.00-40.747 c0.00,0.235,0.00-0.192,0.00-1.92l-85.333,0.00 L 213.333,373.333 c0.00,58.923-47.744,106.667-106.667,106.667S0.00,432.256,0.00,373.333s 47.744-106.667, 106.667-106.667l 40.747,0.00 C 147.179,266.667, 147.605,266.667, 149.333,266.667l0.00-85.333 L 106.667,181.333 
			c-58.923,0.00-106.667-47.744-106.667-106.667s 47.744-106.667, 106.667-106.667s 106.667,47.744, 106.667,106.667l0.00,40.747 c0.00-0.256,0.00,0.171,0.00,1.92l 85.333,0.00 l0.00-42.667 c0.00-58.923, 47.744-106.667, 106.667-106.667s 106.667,47.744, 106.667,106.667
			S 464.256,181.333, 405.333,181.333z M 362.667,373.333c0.00,23.552, 19.115,42.667, 42.667,42.667s 42.667-19.115, 42.667-42.667s-19.115-42.667-42.667-42.667c-11.115,0.00-42.667,0.00-42.667,0.00S 362.667,360.875, 362.667,373.333z M 149.333,74.667
			c0.00-23.552-19.115-42.667-42.667-42.667s-42.667,19.115-42.667,42.667s 19.115,42.667, 42.667,42.667c 11.115,0.00, 42.667,0.00, 42.667,0.00S 149.333,87.125, 149.333,74.667z M 149.333,330.667c0.00,0.00-30.208,0.00-42.667,0.00C 83.115,330.667, 64.00,349.781, 64.00,373.333
			s 19.115,42.667, 42.667,42.667s 42.667-19.115, 42.667-42.667C 149.333,362.219, 149.333,330.667, 149.333,330.667z M 298.667,181.333l-85.333,0.00 l0.00,85.333 l 85.333,0.00 L 298.667,181.333 z M 405.333,32.00c-23.552,0.00-42.667,19.115-42.667,42.667c0.00,11.115,0.00,42.667,0.00,42.667s 30.208,0.00, 42.667,0.00
			c 23.552,0.00, 42.667-19.115, 42.667-42.667S 428.885,32.00, 405.333,32.00z"  />
<glyph unicode="&#xe00f;" d="M 256.00,480.00C 114.624,480.00,0.00,365.376,0.00,224.00c0.00-141.397, 114.624-256.00, 256.00-256.00c 141.376,0.00, 256.00,114.603, 256.00,256.00C 512.00,365.376, 397.376,480.00, 256.00,480.00z M 421.419,276.032
			l-183.616-183.616c-3.755-3.776-9.856-3.776-13.589,0.00l-27.136,27.413c-3.733,3.755-9.856,9.899-13.568,13.696l-63.147,66.389
			c-1.856,1.856-2.837,4.48-2.837,6.976c0.00,2.453, 0.981,4.843, 2.837,6.699l 27.669,24.939c 1.877,1.92, 4.373,2.859, 6.848,2.859
			c 2.432-0.021, 4.864-0.981, 6.72-2.859l 62.635-63.893c 3.733-3.797, 9.835-3.797, 13.589,0.00l 142.912,142.528c 3.755,3.776, 9.835,3.776, 13.568,0.00
			l 27.136-27.413C 425.173,285.995, 425.173,279.808, 421.419,276.032z"  />
<glyph unicode="&#xe010;" d="M 461.909,411.499c-6.251,6.293-16.427,6.293-22.635,0.00L 200.747,174.08
	c-6.251-6.336-16.448-6.336-22.656,0.00L 73.579,280.512C 70.485,283.669, 66.432,285.227, 62.357,285.248C 58.24,285.269, 54.059,283.712, 50.923,280.512
	l-46.187-41.515C 1.664,235.84,0.00,231.893,0.00,227.776c0.00-4.139, 1.664-8.469, 4.757-11.605l 105.387-110.592c 6.229-6.315, 16.448-16.555, 22.656-22.827
	l 45.312-45.675c 6.229-6.251, 16.405-6.251, 22.656,0.00l 306.475,305.92c 6.251,6.272, 6.251,16.576,0.00,22.848L 461.909,411.499z"  />
<glyph unicode="&#xe011;" d="M0.00,351.979C0.00,375.552, 19.115,394.667, 42.667,394.667l 42.667,0.00 L 85.333,437.333 c0.00,11.776, 9.536,42.667, 21.333,42.667l 42.667,0.00 c 11.797,0.00, 21.333-30.891, 21.333-42.667l0.00-42.667 l 170.667,0.00 
	L 341.333,437.333 c0.00,11.776, 9.536,42.667, 21.333,42.667l 42.667,0.00 c 11.797,0.00, 21.333-30.891, 21.333-42.667l0.00-42.667 l 42.667,0.00 c 23.552,0.00, 42.667-19.115, 42.667-42.688L 512.00,309.333 L0.00,309.333 L0.00,351.979 z M 512.00,266.645L 512.00-10.667 c0.00,0.00-11.115-21.355-42.667-21.355L 42.667-32.021 
	C 9.109-32.021,0.00-10.667,0.00-10.667L0.00,266.645 L 512.00,266.645 z"  />
<glyph unicode="&#xe012;" d="M 228.651,84.032l 144.64-113.301C 375.659-31.083, 377.109-32.00, 378.517-32.00
	c 4.011,0.00, 5.205,2.709, 5.205,7.211l0.00,107.157 c0.00,7.573, 4.971,13.589, 11.691,13.589L 448.00,96.00c 47.339,0.00, 64.00,23.339, 64.00,42.667s0.00,277.333,0.00,298.667s-15.957,42.667-64.299,42.667
	L 63.765,480.00 C 17.109,480.00,0.00,459.328,0.00,437.333s0.00-277.995,0.00-298.667s 17.664-42.667, 64.00-42.667l 128.00,0.00 C 192.00,96.00, 218.773,95.253, 228.651,84.032z"  />
<glyph unicode="&#xe013;" d="M 421.952,408.555l-23.701-35.499C 441.579,337.856, 469.333,284.181, 469.333,224.00
			c0.00-60.203-27.755-113.877-71.083-149.077l 23.701-35.477C 476.693,82.368, 512.00,148.992, 512.00,224.00C 512.00,298.987, 476.715,365.611, 421.952,408.555z M 374.40,337.344
			l-23.936-35.84c 20.651-19.477, 33.707-46.891, 33.707-77.525s-13.056-58.069-33.707-77.547l 23.936-35.84C 406.336,138.027, 426.667,178.603, 426.667,224.00
			C 426.667,269.376, 406.357,309.952, 374.40,337.344z M 256.00,458.667c-25.109,0.00-32.704-14.592-32.704-14.592S 157.995,372.331, 113.024,340.672C 104.747,335.403, 95.659,330.667, 79.573,330.667
			L 42.667,330.667 C 19.115,330.667,0.00,311.552,0.00,288.00l0.00-128.00 c0.00-23.552, 19.115-42.667, 42.667-42.667l 36.907,0.00 c 16.085,0.00, 25.173-4.736, 33.429-10.005c 44.971-31.659, 110.272-103.424, 110.272-103.424
			S 230.891-10.667, 256.00-10.667c 23.552,0.00, 42.667,19.093, 42.667,42.667L 298.667,416.00 C 298.667,439.573, 279.552,458.667, 256.00,458.667z"  />
<glyph unicode="&#xe004;" d="M 448.00,394.667c-29.909,0.00-61.163,0.00-61.163,0.00L 366.933,437.333c-4.587,10.624-22.933,21.333-38.955,21.333L 186.859,458.667 
			C 170.837,458.667, 152.491,447.957, 147.904,437.333L 128.00,394.667c0.00,0.00-32.363,0.00-64.00,0.00C 13.035,394.667,0.00,352.00,0.00,352.00l0.00-298.667 c0.00,0.00, 32.00-42.667, 64.00-42.667s 349.995,0.00, 384.00,0.00s 64.00,42.667, 64.00,42.667L 512.00,352.00 C 512.00,352.00, 501.248,394.667, 448.00,394.667z
			 M 256.00,74.645c-70.677,0.00-128.00,57.323-128.00,128.021c0.00,70.677, 57.323,128.00, 128.00,128.00c 70.699,0.00, 128.00-57.323, 128.00-128.00C 384.00,131.968, 326.699,74.645, 256.00,74.645z M 256.00,288.00
			c-47.125,0.00-85.333-38.208-85.333-85.333s 38.208-85.333, 85.333-85.333s 85.333,38.208, 85.333,85.333S 303.125,288.00, 256.00,288.00z"  />
<glyph unicode="&#x20;" horiz-adv-x="256" />
<glyph class="hidden" unicode="&#xf000;" d="M0,480L 512 -32L0 -32 z" horiz-adv-x="0" />
</font>
</defs>
</svg>
